Series de los 90

Series => Lista de Series => Especiales => Mensaje iniciado por: Giovanny789 en 19 de agosto de 2014, 12:19:55 am

Título: Rugrats - Pelicula [02/03] - Rugrats En Paris [DVDFull+DVDRip 5.1][2018-FIXED]
Publicado por: Giovanny789 en 19 de agosto de 2014, 12:19:55 am
Rugrats - Peliculas - 02/03 - Rugrats En Paris - DVDFull+DVDRip
(http://i60.tinypic.com/mhvkmf.jpg)

Espero les sea de su agrado, esta la version Full y para los q les sea suficiente el Rip igualmente esta en excelente calidad, mas informacion sobre el rip ver "INFORMACION MEDIAINFO DVDRIP"

INFORMACION

Nombre: Rugrats in Paris: The Movie - Rugrats En Paris
Año: 2000
Pais: Estados Unidos
Genero: Animacion
Tipo: DVD5Full + DVDrip
Menu: Si
Extras: Si
Calidad: Excelente(Ambas)
Peso: DVDFull 4.23GB - DVDrip 1.05GB
Idiomas: Ambos: Ingles 5.1 ch - Español Latino 5.1 ch
Subtitulos: Ambos: Ingles - Español Latino - Portugués
Duracion: 78 minutos
Servidor: Mega
Encryptados: SI con nCrypt [Mas informacion al final de los enlaces de descarga]
Contraseña de Encryptacion: By.G789[C7HD]
Compresor: WinRar 5.01 x64
Contraseña De Compresión: No tiene
Partes DVDFull: 21 Partes De 200MB y 01 Partes De 68.9MB [5% de Registro De Recuperacion]
Partes DVDRip: 05 Partes De 200MB y 01 Partes De 121.5MB [5% de Registro De Recuperacion]
Subida Y Ripeo: Giovanny789

IMPORTANTE: PORFAVOR CARGAR LOS LINKS A UN GESTOR DE DESCARGA DE PREFERENCIA JD2
IMPORTANTE PARA DIFERENCIAR LOS LINKS
F-LREP: Los Rugrats En Paris Es el DVDFULL(F)
LREP: Los Rugrats En Paris Es el DVDRip

CAPTURAS DVDFULL + Captura de Links Cargados en JD2(Propias)
(http://i60.tinypic.com/2a95pxj.jpg)
(http://i59.tinypic.com/r9qss2.jpg)(http://i59.tinypic.com/11imkyb.jpg)
(http://i60.tinypic.com/2d1nspu.jpg)(http://i59.tinypic.com/28jjexc.jpg)
(http://i58.tinypic.com/i70phg.jpg)

CAPTURAS DVDRip
(http://i60.tinypic.com/1z3rxco.jpg)

INFORMACION MEDIAINFO DVDRIP
General
Unique ID                                : 27789673513184300139333116492054628309 (0x14E818B00DF4701FE1BB6548E88987D5)
Complete name                            : E:VideoSeriesPeliculasLos Rugrats En Paris.mkv
Format                                   : Matroska
Format version                           : Version 2
File size                                : 1.05 GiB
Duration                                 : 1h 18mn
Overall bit rate                         : 1 914 Kbps
Writing application                      : HandBrake 0.9.9
Writing library                          : libmkv 0.6.5

Video
ID                                       : 1
Format                                   : AVC
Format/Info                              : Advanced Video Codec
Format profile                           : Main@L4.0
Format settings, CABAC                   : Yes
Format settings, ReFrames                : 4 frames
Codec ID                                 : V_MPEG4/ISO/AVC
Bit rate                                 : 1 000 Kbps
Width                                    : 716 pixels
Height                                   : 480 pixels
Display aspect ratio                     : 16:9
Original display aspect ratio            : 16:9
Frame rate mode                          : Variable
Color space                              : YUV
Chroma subsampling                       : 4:2:0
Bit depth                                : 8 bits
Scan type                                : Progressive
Writing library                          : x264 core 130 r2273 b3065e6
Encoding settings                        : cabac=1 / ref=1 / deblock=1:0:0 / analyse=0x1:0x111 / me=hex / subme=2 / psy=1 / psy_rd=1.00:0.00 / mixed_ref=0 / me_range=16 / chroma_me=1 / trellis=0 / 8x8dct=0 / cqm=0 / deadzone=21,11 / fast_pskip=1 / chroma_qp_offset=0 / threads=6 / lookahead_threads=2 / sliced_threads=0 / nr=0 / decimate=1 / interlaced=0 / bluray_compat=0 / constrained_intra=0 / bframes=3 / b_pyramid=2 / b_adapt=1 / b_bias=0 / direct=1 / weightb=1 / open_gop=0 / weightp=1 / keyint=240 / keyint_min=24 / scenecut=40 / intra_refresh=0 / rc_lookahead=10 / rc=2pass / mbtree=1 / bitrate=1000 / ratetol=1.0 / qcomp=0.60 / qpmin=0 / qpmax=69 / qpstep=4 / cplxblur=20.0 / qblur=0.5 / vbv_maxrate=20000 / vbv_bufsize=25000 / nal_hrd=none / ip_ratio=1.40 / aq=1:1.00
Language                                 : English
Default                                  : Yes
Forced                                   : No
Color primaries                          : BT.601 NTSC
Transfer characteristics                 : BT.709
Matrix coefficients                      : BT.601

Audio #1
ID                                       : 2
Format                                   : AC-3
Format/Info                              : Audio Coding 3
Mode extension                           : CM (complete main)
Format settings, Endianness              : Big
Codec ID                                 : A_AC3
Duration                                 : 1h 18mn
Bit rate mode                            : Constant
Bit rate                                 : 448 Kbps
Channel(s)                               : 6 channels
Channel positions                        : Front: L C R, Side: L R, LFE
Sampling rate                            : 48.0 KHz
Bit depth                                : 16 bits
Compression mode                         : Lossy
Stream size                              : 252 MiB (23%)
Language                                 : Spanish
Default                                  : Yes
Forced                                   : No

Audio #2
ID                                       : 3
Format                                   : AC-3
Format/Info                              : Audio Coding 3
Mode extension                           : CM (complete main)
Format settings, Endianness              : Big
Codec ID                                 : A_AC3
Duration                                 : 1h 18mn
Bit rate mode                            : Constant
Bit rate                                 : 448 Kbps
Channel(s)                               : 6 channels
Channel positions                        : Front: L C R, Side: L R, LFE
Sampling rate                            : 48.0 KHz
Bit depth                                : 16 bits
Compression mode                         : Lossy
Stream size                              : 252 MiB (23%)
Language                                 : English
Default                                  : No
Forced                                   : No

Text #1
ID                                       : 4
Format                                   : VobSub
Codec ID                                 : S_VOBSUB
Codec ID/Info                            : The same subtitle format used on DVDs
Language                                 : Spanish
Default                                  : No
Forced                                   : No

Text #2
ID                                       : 5
Format                                   : VobSub
Codec ID                                 : S_VOBSUB
Codec ID/Info                            : The same subtitle format used on DVDs
Language                                 : English
Default                                  : No
Forced                                   : No

Text #3
ID                                       : 6
Format                                   : VobSub
Codec ID                                 : S_VOBSUB
Codec ID/Info                            : The same subtitle format used on DVDs
Language                                 : Spanish
Default                                  : No
Forced                                   : No

Menu
00:00:00.000                             : Chapter 1
00:07:35.721                             : Chapter 2
00:17:28.814                             : Chapter 3
00:25:18.950                             : Chapter 4
00:30:44.809                             : Chapter 5
00:39:05.943                             : Chapter 6
00:47:03.420                             : Chapter 7
00:53:36.813                             : Chapter 8
00:59:12.315                             : Chapter 9
01:08:29.905                             : Chapter 10

ENLACES DE DESCARGA
Contenido oculto, para verlo debes realizar un comentario en este post.
También puedes hacer click en una palabra resaltada en rojo aquí debajo.


IMPORTANTE PARA DESCARGAR
Tener abierto Mipony o de JD2(de preferencia este), abrir el enlace en cualquier navegador web, les pedirá contraseña de encryptacion(esta en la info), y les aparecerá un botón "Click NLoad" darle click y se cargaran todos los enlaces.

NOTA:  NO podre resubirlos debido a que mi internet es muy lenta y solo publico a inicios de cada mes(que es cuando me aumentan la velocidad cierta cantidad de GB) y como ya estoy en otros proyectos que me ocupan todo LES PIDO por favor si ven que los enlaces ya no funcionan envíenme un MP y veré si es la encryptacion o si me los borraron de Mega, si fuera solo la encryptacion lo solucionare, si fuera de Mega por favor si alguno de los que bajo el aporte puede devolver el favor re-subiendolo y creando un nuevo post o pasándome los enlaces para ponerlos en el post
Título: Re:Rugrats - Peliculas - 02/03 - Rugrats En Paris - [DVDFull+DVDRip 5.1][MEGA]
Publicado por: iuli27 en 20 de agosto de 2014, 09:18:34 am
Un millón de gracias por la pelicula!!!!!!  :) ;D
Título: Re:Rugrats - Peliculas - 02/03 - Rugrats En Paris - [DVDFull+DVDRip 5.1][MEGA]
Publicado por: Johnny Bravo en 22 de agosto de 2014, 10:40:44 pm
Gran aporte, muchas gracias por la calidad.
Título: Re:Rugrats - Peliculas - 02/03 - Rugrats En Paris - [DVDFull+DVDRip 5.1][MEGA]
Publicado por: Sightless en 23 de agosto de 2014, 12:39:12 am
Gracias por la pelicula  :cheesy:
Título: Re:Rugrats - Peliculas - 02/03 - Rugrats En Paris - [DVDFull+DVDRip 5.1][MEGA]
Publicado por: Rakzet en 26 de agosto de 2014, 04:46:17 am
woww otra buena pelicula en dvd full, me encantan lor rugrats :D +1 por estas pelis tan buenas x3
Título: Re:Rugrats - Peliculas - 02/03 - Rugrats En Paris - [DVDFull+DVDRip 5.1][MEGA]
Publicado por: hjic94 en 28 de agosto de 2014, 06:30:30 pm
Genial, excelente aporte una de las mejore peliculas de los Rugrats
Título: Re:Rugrats - Peliculas - 02/03 - Rugrats En Paris - [DVDFull+DVDRip 5.1][MEGA]
Publicado por: Sadayaro en 06 de octubre de 2014, 09:36:30 pm
gracias por el excelente aporte  ;D
Título: Re:Rugrats - Peliculas - 02/03 - Rugrats En Paris - [DVDFull+DVDRip 5.1][MEGA]
Publicado por: santi_rawr en 27 de octubre de 2014, 04:44:31 pm
SE VEN BIEN
Título: Re:Rugrats - Peliculas - 02/03 - Rugrats En Paris - [DVDFull+DVDRip 5.1][MEGA]
Publicado por: djariel1053 en 27 de diciembre de 2014, 02:09:47 am
Excelente!
Título: Re:Rugrats - Peliculas - 02/03 - Rugrats En Paris - [DVDFull+DVDRip 5.1][MEGA]
Publicado por: Chris17 en 01 de enero de 2015, 11:01:40 pm
genial otra mas asi  :) muchas gracias
Título: Re:Rugrats - Peliculas - 02/03 - Rugrats En Paris - [DVDFull+DVDRip 5.1][MEGA]
Publicado por: beea en 04 de enero de 2015, 12:00:59 pm
gracias por el aporte
Título: Re:Rugrats - Peliculas - 02/03 - Rugrats En Paris - [DVDFull+DVDRip 5.1][MEGA]
Publicado por: ramiro3220 en 09 de febrero de 2015, 10:47:01 am
 excelente aporte una de las mejore :P
Título: Re:Rugrats - Peliculas - 02/03 - Rugrats En Paris - [DVDFull+DVDRip 5.1][MEGA]
Publicado por: golden_k en 11 de febrero de 2015, 01:45:03 pm
gracias
Título: Re:Rugrats - Peliculas - 02/03 - Rugrats En Paris - [DVDFull+DVDRip 5.1][MEGA]
Publicado por: omarj007 en 21 de febrero de 2015, 02:25:02 pm
Gracias totales tendras la serie full dvd?
Título: Re:Rugrats - Peliculas - 02/03 - Rugrats En Paris - [DVDFull+DVDRip 5.1][MEGA]
Publicado por: JoannaDark29 en 12 de marzo de 2015, 06:03:30 am
Estas pelis son muy buenas, gracias por el aporte
Título: Re:Rugrats - Peliculas - 02/03 - Rugrats En Paris - [DVDFull+DVDRip 5.1][MEGA]
Publicado por: jahomaru80 en 14 de marzo de 2015, 01:07:02 am
gracias por tu esfuerzo
Título: Re:Rugrats - Peliculas - 02/03 - Rugrats En Paris - [DVDFull+DVDRip 5.1][MEGA]
Publicado por: joselmig en 15 de marzo de 2015, 02:46:39 pm
gracias por este aporte
Título: Re:Rugrats - Peliculas - 02/03 - Rugrats En Paris - [DVDFull+DVDRip 5.1][MEGA]
Publicado por: MiloDark en 19 de marzo de 2015, 10:53:14 am
Gracias por el aporte! Alguien podria enseñarme como descargar estos archivos? Sinceramente soy nuevo y no se como bajarlos.

Gracias!
Título: Re:Rugrats - Peliculas - 02/03 - Rugrats En Paris - [DVDFull+DVDRip 5.1][MEGA]
Publicado por: manueel27 en 23 de marzo de 2015, 09:28:45 pm
Gracias +10
Título: Re:Rugrats - Peliculas - 02/03 - Rugrats En Paris - [DVDFull+DVDRip 5.1][MEGA]
Publicado por: die_hard en 10 de abril de 2015, 07:41:16 pm
Cómo puedo descargar?
Título: Re:Rugrats - Peliculas - 02/03 - Rugrats En Paris - [DVDFull+DVDRip 5.1][MEGA]
Publicado por: Johnny Bravo en 10 de abril de 2015, 07:49:00 pm
Cómo puedo descargar?

Y un dia alguien pregunto como se descarga antes de leer el tutorial. Hay cada uno....
Título: Re:Rugrats - Pelicula [02/03] - Rugrats En Paris [DVDFull+DVDRip 5.1][REPARADO]
Publicado por: s72camid en 12 de mayo de 2015, 03:23:17 pm
gracias!!
Título: Re:Rugrats - Pelicula [02/03] - Rugrats En Paris [DVDFull+DVDRip 5.1][REPARADO]
Publicado por: trenkat en 22 de mayo de 2015, 06:22:51 am
gracias por el aporte
Título: Re:Rugrats - Pelicula [02/03] - Rugrats En Paris [DVDFull+DVDRip 5.1][REPARADO]
Publicado por: hecjav4 en 26 de junio de 2015, 07:12:52 pm
Exelente aporte
Título: Re:Rugrats - Pelicula [02/03] - Rugrats En Paris [DVDFull+DVDRip 5.1][REPARADO]
Publicado por: Darkkid en 29 de junio de 2015, 03:38:14 am
Que aportazo hermano,Gracias (y)
Título: Re:Rugrats - Pelicula [02/03] - Rugrats En Paris [DVDFull+DVDRip 5.1][REPARADO]
Publicado por: martincitooo en 19 de julio de 2015, 06:49:04 pm
Gracias por el aporte! Muy buena peli!  :cool:
Título: Re:Rugrats - Pelicula [02/03] - Rugrats En Paris [DVDFull+DVDRip 5.1][REPARADO]
Publicado por: pablitox69 en 19 de julio de 2015, 07:20:03 pm
muy buena pelicula
Título: Re:Rugrats - Pelicula [02/03] - Rugrats En Paris [DVDFull+DVDRip 5.1][REPARADO]
Publicado por: lerochulero en 31 de julio de 2015, 03:17:13 pm
Muchas muchas gracias! :D
Título: Re:Rugrats - Pelicula [02/03] - Rugrats En Paris [DVDFull+DVDRip 5.1][REPARADO]
Publicado por: kloedj en 16 de agosto de 2015, 05:45:18 pm
muy buena pelicula
Título: Re:Rugrats - Pelicula [02/03] - Rugrats En Paris [DVDFull+DVDRip 5.1][REPARADO]
Publicado por: jimbodash en 16 de agosto de 2015, 06:54:21 pm
Gracias Giovanny, eres grande men, hacia años que no veo esta pelicula
Título: Re:Rugrats - Pelicula [02/03] - Rugrats En Paris [DVDFull+DVDRip 5.1][REPARADO]
Publicado por: Raulcito en 13 de septiembre de 2015, 03:37:03 pm
GRACIAAAAAAAAAAAAAAAAAAAAAAAAAAAAAS HERMANO
Título: Re:Rugrats - Pelicula [02/03] - Rugrats En Paris [DVDFull+DVDRip 5.1][REPARADO]
Publicado por: yegopro23 en 17 de septiembre de 2015, 11:22:18 am
Gracias amigo por tu aporte  :cheesy: :cheesy: :cheesy:
Título: Re:Rugrats - Pelicula [02/03] - Rugrats En Paris [DVDFull+DVDRip 5.1][REPARADO]
Publicado por: rosadarck en 29 de septiembre de 2015, 01:54:27 am
ok ok ok probanco a ver que tal, la ágina se ve interesante
Título: Re:Rugrats - Pelicula [02/03] - Rugrats En Paris [DVDFull+DVDRip 5.1][REPARADO]
Publicado por: YukiEri22 en 05 de octubre de 2015, 07:11:12 pm
Graaacias n,n
Título: Re:Rugrats - Pelicula [02/03] - Rugrats En Paris [DVDFull+DVDRip 5.1][REPARADO]
Publicado por: lukasacevedo153 en 10 de octubre de 2015, 03:25:31 pm
 :azn: :azn: :azn: muy bueno el aporte se agradece
Título: Re:Rugrats - Pelicula [02/03] - Rugrats En Paris [DVDFull+DVDRip 5.1][REPARADO]
Publicado por: cris90 en 10 de octubre de 2015, 04:10:36 pm
uyy gracias!! no la vi :)
Título: Re:Rugrats - Pelicula [02/03] - Rugrats En Paris [DVDFull+DVDRip 5.1][REPARADO]
Publicado por: Feña en 23 de octubre de 2015, 12:59:55 pm
woo te pasaste!! llevo años buscando las pelis de rugrats! muchas gracias!!!  ;D ;D
Título: Re:Rugrats - Pelicula [02/03] - Rugrats En Paris [DVDFull+DVDRip 5.1][REPARADO]
Publicado por: kyros en 28 de octubre de 2015, 03:57:27 am
gracias por el dvd :D
Título: Re:Rugrats - Pelicula [02/03] - Rugrats En Paris [DVDFull+DVDRip 5.1][REPARADO]
Publicado por: animaniacaprichosa en 10 de noviembre de 2015, 04:18:46 pm
Esta Peli es una Joya muchas gracias por compartirla...
Título: Re:Rugrats - Pelicula [02/03] - Rugrats En Paris [DVDFull+DVDRip 5.1][REPARADO]
Publicado por: tendo93 en 12 de noviembre de 2015, 03:41:40 pm
 :cry: :cry: excelente
Título: Re:Rugrats - Pelicula [02/03] - Rugrats En Paris [DVDFull+DVDRip 5.1][REPARADO]
Publicado por: marcorossi en 27 de noviembre de 2015, 03:18:42 am
Muchas Gracias  :)
Título: Re:Rugrats - Pelicula [02/03] - Rugrats En Paris [DVDFull+DVDRip 5.1][REPARADO]
Publicado por: enriqueandres911 en 31 de diciembre de 2015, 06:03:47 pm
buenisima pelicula
Título: Re:Rugrats - Pelicula [02/03] - Rugrats En Paris [DVDFull+DVDRip 5.1][REPARADO]
Publicado por: pepeaguilargtz en 01 de enero de 2016, 01:22:25 am
exelente aporte, en hora buena
Título: Re:Rugrats - Pelicula [02/03] - Rugrats En Paris [DVDFull+DVDRip 5.1][REPARADO]
Publicado por: pepeaguilargtz en 01 de enero de 2016, 01:27:26 am
exelente aporte, en hora buena
Título: Re:Rugrats - Pelicula [02/03] - Rugrats En Paris [DVDFull+DVDRip 5.1][REPARADO]
Publicado por: ALXZEROX en 06 de enero de 2016, 04:22:13 am
MIL GRACIAS POR LA PELICULA
Título: Re:Rugrats - Pelicula [02/03] - Rugrats En Paris [DVDFull+DVDRip 5.1][REPARADO]
Publicado por: gabymon en 12 de enero de 2016, 08:22:48 am
 :cool: :cool: :cool: :cool: :cool: :cool:
Título: Re:Rugrats - Pelicula [02/03] - Rugrats En Paris [DVDFull+DVDRip 5.1][REPARADO]
Publicado por: gabymon en 12 de enero de 2016, 08:24:10 am
ty  :cool: :cool: :cool: :cool: :cool:
Título: Re:Rugrats - Pelicula [02/03] - Rugrats En Paris [DVDFull+DVDRip 5.1][REPARADO]
Publicado por: vosmodi en 24 de enero de 2016, 07:57:26 pm
muy bueno!!
Título: Re:Rugrats - Pelicula [02/03] - Rugrats En Paris [DVDFull+DVDRip 5.1][REPARADO]
Publicado por: orlandocd en 02 de febrero de 2016, 10:27:29 pm
Gracias muy buena pelicula, un clasico
Título: Re:Rugrats - Pelicula [02/03] - Rugrats En Paris [DVDFull+DVDRip 5.1][REPARADO]
Publicado por: manuelb388 en 03 de febrero de 2016, 09:03:55 pm
GRACIAS BUENA
Título: Re:Rugrats - Peliculas - 02/03 - Rugrats En Paris - [DVDFull+DVDRip 5.1][MEGA]
Publicado por: maicmaster en 19 de febrero de 2016, 03:29:21 am
Ahora si tendre las dos que me gustan, muchas gracias :)
Título: Re:Rugrats - Pelicula [02/03] - Rugrats En Paris [DVDFull+DVDRip 5.1][REPARADO]
Publicado por: spiketw2 en 25 de febrero de 2016, 11:40:27 pm
Gracias por la peli ,gran aporte :)
Título: Re:Rugrats - Pelicula [02/03] - Rugrats En Paris [DVDFull+DVDRip 5.1][REPARADO]
Publicado por: Bassgabo en 26 de febrero de 2016, 03:09:40 am
Gracias
Título: Re:Rugrats - Pelicula [02/03] - Rugrats En Paris [DVDFull+DVDRip 5.1][REPARADO]
Publicado por: kaosky28 en 01 de marzo de 2016, 12:47:58 pm
gracias por el aporte
Título: Re:Rugrats - Pelicula [02/03] - Rugrats En Paris [DVDFull+DVDRip 5.1][REPARADO]
Publicado por: ernes02 en 03 de marzo de 2016, 05:46:38 am
Muchas gracias :3
Título: Re:Rugrats - Pelicula [02/03] - Rugrats En Paris [DVDFull+DVDRip 5.1][REPARADO]
Publicado por: mfam1974 en 11 de marzo de 2016, 10:16:37 am
gracias buscaba esta pelicula
Título: Re:Rugrats - Pelicula [02/03] - Rugrats En Paris [DVDFull+DVDRip 5.1][REPARADO]
Publicado por: persapersei en 19 de marzo de 2016, 01:40:18 am
guau unas joyas de peliculas
Título: Re:Rugrats - Pelicula [02/03] - Rugrats En Paris [DVDFull+DVDRip 5.1][REPARADO]
Publicado por: dadadox en 24 de marzo de 2016, 07:40:40 pm
 :o Gracias!
Título: Re:Rugrats - Pelicula [02/03] - Rugrats En Paris [DVDFull+DVDRip 5.1][REPARADO]
Publicado por: axos20 en 26 de marzo de 2016, 03:31:46 pm
Gracias!!!
Título: Re:Rugrats - Pelicula [02/03] - Rugrats En Paris [DVDFull+DVDRip 5.1][REPARADO]
Publicado por: solari14 en 26 de marzo de 2016, 07:34:59 pm
gracias
Título: Re:Rugrats - Pelicula [02/03] - Rugrats En Paris [DVDFull+DVDRip 5.1][REPARADO]
Publicado por: eliseoguy en 28 de marzo de 2016, 11:32:34 pm
gracias amigoo
Título: Re:Rugrats - Pelicula [02/03] - Rugrats En Paris [DVDFull+DVDRip 5.1][REPARADO]
Publicado por: Kaisoo456 en 08 de abril de 2016, 12:16:27 am
buen post  ;D
Título: Re:Rugrats - Pelicula [02/03] - Rugrats En Paris [DVDFull+DVDRip 5.1][REPARADO]
Publicado por: andrescerta en 18 de abril de 2016, 06:27:28 pm
super
Título: Re:Rugrats - Pelicula [02/03] - Rugrats En Paris [DVDFull+DVDRip 5.1][REPARADO]
Publicado por: montana333 en 19 de abril de 2016, 01:33:16 am
BUENISIMO
Título: Re:Rugrats - Pelicula [02/03] - Rugrats En Paris [DVDFull+DVDRip 5.1][REPARADO]
Publicado por: AlvaroCRack7 en 23 de abril de 2016, 03:20:36 am
Graciela pichon
Título: Re:Rugrats - Pelicula [02/03] - Rugrats En Paris [DVDFull+DVDRip 5.1][REPARADO]
Publicado por: levsitar en 29 de abril de 2016, 09:58:06 pm
excelente gracias
Título: Re:Rugrats - Pelicula [02/03] - Rugrats En Paris [DVDFull+DVDRip 5.1][REPARADO]
Publicado por: toti2016 en 02 de mayo de 2016, 12:20:32 pm
Este fin de semana la vere con mis sobrinos.
Título: Re:Rugrats - Pelicula [02/03] - Rugrats En Paris [DVDFull+DVDRip 5.1][REPARADO]
Publicado por: Geovany272 en 07 de mayo de 2016, 07:38:20 pm
BUEN APAGINA
Título: Re:Rugrats - Pelicula [02/03] - Rugrats En Paris [DVDFull+DVDRip 5.1][REPARADO]
Publicado por: masterin6a en 09 de mayo de 2016, 08:15:23 pm
muchas gracias, me encanta esta serie
Título: Re:Rugrats - Pelicula [02/03] - Rugrats En Paris [DVDFull+DVDRip 5.1][REPARADO]
Publicado por: deviss en 26 de mayo de 2016, 07:21:11 am
Gran aporte, se agradece  otra peli para mi sobrino :P
Título: Re:Rugrats - Pelicula [02/03] - Rugrats En Paris [DVDFull+DVDRip 5.1][REPARADO]
Publicado por: jorc en 09 de junio de 2016, 08:47:39 pm
gracisas
Título: Re:Rugrats - Pelicula [02/03] - Rugrats En Paris [DVDFull+DVDRip 5.1][REPARADO]
Publicado por: bian1991 en 11 de junio de 2016, 08:44:28 pm
gracias
Título: Re:Rugrats - Pelicula [02/03] - Rugrats En Paris [DVDFull+DVDRip 5.1][REPARADO]
Publicado por: peter12 en 13 de junio de 2016, 02:36:12 am
una serie que les gusta a mis sobrinos
Título: Re:Rugrats - Pelicula [02/03] - Rugrats En Paris [DVDFull+DVDRip 5.1][REPARADO]
Publicado por: gna123 en 17 de junio de 2016, 01:35:04 am
un millon de gracias
Título: Re:Rugrats - Pelicula [02/03] - Rugrats En Paris [DVDFull+DVDRip 5.1][REPARADO]
Publicado por: klinger en 30 de junio de 2016, 04:21:38 am
buen aporte muchas gracias.
Título: Re:Rugrats - Pelicula [02/03] - Rugrats En Paris [DVDFull+DVDRip 5.1][REPARADO]
Publicado por: Feña en 07 de julio de 2016, 11:53:58 pm
muchas gracias!!
Título: Re:Rugrats - Pelicula [02/03] - Rugrats En Paris [DVDFull+DVDRip 5.1][REPARADO]
Publicado por: Bladeranger90 en 12 de julio de 2016, 03:30:20 pm
Muchas Gracias!! Muy buena!
Título: Re:Rugrats - Pelicula [02/03] - Rugrats En Paris [DVDFull+DVDRip 5.1][REPARADO]
Publicado por: pogo96vas en 15 de julio de 2016, 01:33:07 pm
Muchísimas gracias!!!
Título: Re:Rugrats - Pelicula [02/03] - Rugrats En Paris [DVDFull+DVDRip 5.1][REPARADO]
Publicado por: vaneko20 en 30 de julio de 2016, 05:02:48 pm
Gracias!!
Título: Re:Rugrats - Pelicula [02/03] - Rugrats En Paris [DVDFull+DVDRip 5.1][REPARADO]
Publicado por: fw07ml en 20 de agosto de 2016, 06:09:39 pm
excelente aporte
Título: Re:Rugrats - Pelicula [02/03] - Rugrats En Paris [DVDFull+DVDRip 5.1][REPARADO]
Publicado por: oscar cortes en 20 de agosto de 2016, 10:05:11 pm
infancia
Título: Re:Rugrats - Pelicula [02/03] - Rugrats En Paris [DVDFull+DVDRip 5.1][REPARADO]
Publicado por: manu_chi en 31 de agosto de 2016, 06:34:33 pm
la segunda que es mi favorita de las 3  ;D y solo queda la 3
Título: Re:Rugrats - Pelicula [02/03] - Rugrats En Paris [DVDFull+DVDRip 5.1][REPARADO]
Publicado por: justin543543 en 31 de agosto de 2016, 06:45:33 pm
Rugrats - Peliculas - 02/03 - Rugrats En Paris - DVDFull+DVDRip
(http://i60.tinypic.com/mhvkmf.jpg)

Espero les sea de su agrado, esta la version Full y para los q les sea suficiente el Rip igualmente esta en excelente calidad, mas informacion sobre el rip ver "INFORMACION MEDIAINFO DVDRIP"

INFORMACION

Nombre: Rugrats in Paris: The Movie - Rugrats En Paris
Año: 2000
Pais: Estados Unidos
Genero: Animacion
Tipo: DVD5Full + DVDrip
Menu: Si
Extras: Si
Calidad: Excelente(Ambas)
Peso: DVDFull 4.23GB - DVDrip 1.05GB
Idiomas: Ambos: Ingles 5.1 ch - Español Latino 5.1 ch
Subtitulos: Ambos: Ingles - Español Latino - Portugués
Duracion: 78 minutos
Servidor: Mega
Encryptados: SI con nCrypt [Mas informacion al final de los enlaces de descarga]
Contraseña de Encryptacion: By.G789[C7HD]
Compresor: WinRar 5.01 x64
Contraseña De Compresión: No tiene
Partes DVDFull: 21 Partes De 200MB y 01 Partes De 68.9MB [5% de Registro De Recuperacion]
Partes DVDRip: 05 Partes De 200MB y 01 Partes De 121.5MB [5% de Registro De Recuperacion]
Subida Y Ripeo: Giovanny789

IMPORTANTE: PORFAVOR CARGAR LOS LINKS A UN GESTOR DE DESCARGA DE PREFERENCIA JD2
IMPORTANTE PARA DIFERENCIAR LOS LINKS
F-LREP: Los Rugrats En Paris Es el DVDFULL(F)
LREP: Los Rugrats En Paris Es el DVDRip

CAPTURAS DVDFULL + Captura de Links Cargados en JD2(Propias)
(http://i60.tinypic.com/2a95pxj.jpg)
(http://i59.tinypic.com/r9qss2.jpg)(http://i59.tinypic.com/11imkyb.jpg)
(http://i60.tinypic.com/2d1nspu.jpg)(http://i59.tinypic.com/28jjexc.jpg)
(http://i58.tinypic.com/i70phg.jpg)

CAPTURAS DVDRip
(http://i60.tinypic.com/1z3rxco.jpg)

INFORMACION MEDIAINFO DVDRIP
General
Unique ID                                : 27789673513184300139333116492054628309 (0x14E818B00DF4701FE1BB6548E88987D5)
Complete name                            : E:VideoSeriesPeliculasLos Rugrats En Paris.mkv
Format                                   : Matroska
Format version                           : Version 2
File size                                : 1.05 GiB
Duration                                 : 1h 18mn
Overall bit rate                         : 1 914 Kbps
Writing application                      : HandBrake 0.9.9
Writing library                          : libmkv 0.6.5

Video
ID                                       : 1
Format                                   : AVC
Format/Info                              : Advanced Video Codec
Format profile                           : Main@L4.0
Format settings, CABAC                   : Yes
Format settings, ReFrames                : 4 frames
Codec ID                                 : V_MPEG4/ISO/AVC
Bit rate                                 : 1 000 Kbps
Width                                    : 716 pixels
Height                                   : 480 pixels
Display aspect ratio                     : 16:9
Original display aspect ratio            : 16:9
Frame rate mode                          : Variable
Color space                              : YUV
Chroma subsampling                       : 4:2:0
Bit depth                                : 8 bits
Scan type                                : Progressive
Writing library                          : x264 core 130 r2273 b3065e6
Encoding settings                        : cabac=1 / ref=1 / deblock=1:0:0 / analyse=0x1:0x111 / me=hex / subme=2 / psy=1 / psy_rd=1.00:0.00 / mixed_ref=0 / me_range=16 / chroma_me=1 / trellis=0 / 8x8dct=0 / cqm=0 / deadzone=21,11 / fast_pskip=1 / chroma_qp_offset=0 / threads=6 / lookahead_threads=2 / sliced_threads=0 / nr=0 / decimate=1 / interlaced=0 / bluray_compat=0 / constrained_intra=0 / bframes=3 / b_pyramid=2 / b_adapt=1 / b_bias=0 / direct=1 / weightb=1 / open_gop=0 / weightp=1 / keyint=240 / keyint_min=24 / scenecut=40 / intra_refresh=0 / rc_lookahead=10 / rc=2pass / mbtree=1 / bitrate=1000 / ratetol=1.0 / qcomp=0.60 / qpmin=0 / qpmax=69 / qpstep=4 / cplxblur=20.0 / qblur=0.5 / vbv_maxrate=20000 / vbv_bufsize=25000 / nal_hrd=none / ip_ratio=1.40 / aq=1:1.00
Language                                 : English
Default                                  : Yes
Forced                                   : No
Color primaries                          : BT.601 NTSC
Transfer characteristics                 : BT.709
Matrix coefficients                      : BT.601

Audio #1
ID                                       : 2
Format                                   : AC-3
Format/Info                              : Audio Coding 3
Mode extension                           : CM (complete main)
Format settings, Endianness              : Big
Codec ID                                 : A_AC3
Duration                                 : 1h 18mn
Bit rate mode                            : Constant
Bit rate                                 : 448 Kbps
Channel(s)                               : 6 channels
Channel positions                        : Front: L C R, Side: L R, LFE
Sampling rate                            : 48.0 KHz
Bit depth                                : 16 bits
Compression mode                         : Lossy
Stream size                              : 252 MiB (23%)
Language                                 : Spanish
Default                                  : Yes
Forced                                   : No

Audio #2
ID                                       : 3
Format                                   : AC-3
Format/Info                              : Audio Coding 3
Mode extension                           : CM (complete main)
Format settings, Endianness              : Big
Codec ID                                 : A_AC3
Duration                                 : 1h 18mn
Bit rate mode                            : Constant
Bit rate                                 : 448 Kbps
Channel(s)                               : 6 channels
Channel positions                        : Front: L C R, Side: L R, LFE
Sampling rate                            : 48.0 KHz
Bit depth                                : 16 bits
Compression mode                         : Lossy
Stream size                              : 252 MiB (23%)
Language                                 : English
Default                                  : No
Forced                                   : No

Text #1
ID                                       : 4
Format                                   : VobSub
Codec ID                                 : S_VOBSUB
Codec ID/Info                            : The same subtitle format used on DVDs
Language                                 : Spanish
Default                                  : No
Forced                                   : No

Text #2
ID                                       : 5
Format                                   : VobSub
Codec ID                                 : S_VOBSUB
Codec ID/Info                            : The same subtitle format used on DVDs
Language                                 : English
Default                                  : No
Forced                                   : No

Text #3
ID                                       : 6
Format                                   : VobSub
Codec ID                                 : S_VOBSUB
Codec ID/Info                            : The same subtitle format used on DVDs
Language                                 : Spanish
Default                                  : No
Forced                                   : No

Menu
00:00:00.000                             : Chapter 1
00:07:35.721                             : Chapter 2
00:17:28.814                             : Chapter 3
00:25:18.950                             : Chapter 4
00:30:44.809                             : Chapter 5
00:39:05.943                             : Chapter 6
00:47:03.420                             : Chapter 7
00:53:36.813                             : Chapter 8
00:59:12.315                             : Chapter 9
01:08:29.905                             : Chapter 10

ENLACES DE DESCARGA

IMPORTANTE PARA DESCARGAR
Tener abierto Mipony o de JD2(de preferencia este), abrir el enlace en cualquier navegador web, les pedirá contraseña de encryptacion(esta en la info), y les aparecerá un botón "Click NLoad" darle click y se cargaran todos los enlaces.

NOTA:  NO podre resubirlos debido a que mi internet es muy lenta y solo publico a inicios de cada mes(que es cuando me aumentan la velocidad cierta cantidad de GB) y como ya estoy en otros proyectos que me ocupan todo LES PIDO por favor si ven que los enlaces ya no funcionan envíenme un MP y veré si es la encryptacion o si me los borraron de Mega, si fuera solo la encryptacion lo solucionare, si fuera de Mega por favor si alguno de los que bajo el aporte puede devolver el favor re-subiendolo y creando un nuevo post o pasándome los enlaces para ponerlos en el post
Gracias por esta gran pelicula!!! Pd: nostagia
Título: Re:Rugrats - Pelicula [02/03] - Rugrats En Paris [DVDFull+DVDRip 5.1][REPARADO]
Publicado por: futon3000 en 07 de septiembre de 2016, 03:40:39 pm
Genail,tenia años de no verla ,siento que retrocedi mas de 10 años en el tiempo!!!! Muchas gracia
Título: Re:Rugrats - Pelicula [02/03] - Rugrats En Paris [DVDFull+DVDRip 5.1][REPARADO]
Publicado por: locosaa en 11 de octubre de 2016, 12:14:56 am
Muchas gracias compañero! Buenisima la calidad, mejor imposible. Saludos!
Título: Re:Rugrats - Pelicula [02/03] - Rugrats En Paris [DVDFull+DVDRip 5.1][REPARADO]
Publicado por: futon3000 en 20 de octubre de 2016, 09:59:10 pm
es genial :cool: :cool: :cool:
Título: Re:Rugrats - Pelicula [02/03] - Rugrats En Paris [DVDFull+DVDRip 5.1][REPARADO]
Publicado por: lizaon101101 en 15 de noviembre de 2016, 10:14:59 am
gracias
Título: Re:Rugrats - Pelicula [02/03] - Rugrats En Paris [DVDFull+DVDRip 5.1][REPARADO]
Publicado por: jesus_sato en 10 de diciembre de 2016, 04:16:03 am
 :azn: :azn:
Título: Re:Rugrats - Pelicula [02/03] - Rugrats En Paris [DVDFull+DVDRip 5.1][REPARADO]
Publicado por: ios_chef en 25 de diciembre de 2016, 09:39:38 pm
wow! ESTO ESTA SUPER! FELIZ NAVIDA!
Título: Re:Rugrats - Pelicula [02/03] - Rugrats En Paris [DVDFull+DVDRip 5.1][REPARADO]
Publicado por: pepsiloco en 12 de enero de 2017, 02:04:30 am
Gracias
Título: Re:Rugrats - Pelicula [02/03] - Rugrats En Paris [DVDFull+DVDRip 5.1][REPARADO]
Publicado por: juanpa4410 en 03 de febrero de 2017, 10:26:21 pm
gracias por el aporte muy especial  para mi hija ;D
Título: Re:Rugrats - Pelicula [02/03] - Rugrats En Paris [DVDFull+DVDRip 5.1][REPARADO]
Publicado por: Diananina en 05 de febrero de 2017, 07:56:49 pm
hola espero que pueda descargarla
Título: Re:Rugrats - Pelicula [02/03] - Rugrats En Paris [DVDFull+DVDRip 5.1][REPARADO]
Publicado por: Diananina en 05 de febrero de 2017, 07:59:38 pm
ya intente desgargar la peli, me registre, active la cuenta por mi correo y aun no veo los links de descarga, que complicado es todo esto  :(
Título: Re:Rugrats - Pelicula [02/03] - Rugrats En Paris [DVDFull+DVDRip 5.1][REPARADO]
Publicado por: Diananina en 05 de febrero de 2017, 08:00:55 pm
no veo nadaaaaaa de links de descarga
Título: Re:Rugrats - Pelicula [02/03] - Rugrats En Paris [DVDFull+DVDRip 5.1][REPARADO]
Publicado por: species2503 en 14 de marzo de 2017, 02:12:26 am
Muchas gracias por el aporte

La estaba buscando durante algun tiempo ;D
Título: Re:Rugrats - Pelicula [02/03] - Rugrats En Paris [DVDFull+DVDRip 5.1][REPARADO]
Publicado por: carolin en 19 de marzo de 2017, 10:54:39 am
yes
Título: Re:Rugrats - Pelicula [02/03] - Rugrats En Paris [DVDFull+DVDRip 5.1][REPARADO]
Publicado por: Angda en 30 de abril de 2017, 12:31:42 am
Graciaaas
Título: Re:Rugrats - Pelicula [02/03] - Rugrats En Paris [DVDFull+DVDRip 5.1][REPARADO]
Publicado por: fergt en 12 de mayo de 2017, 03:41:31 pm
gracias
Título: Re:Rugrats - Pelicula [02/03] - Rugrats En Paris [DVDFull+DVDRip 5.1][REPARADO]
Publicado por: metcastle en 13 de mayo de 2017, 02:15:45 pm
Gracias !
Título: Re:Rugrats - Pelicula [02/03] - Rugrats En Paris [DVDFull+DVDRip 5.1][REPARADO]
Publicado por: nico100pre en 26 de mayo de 2017, 09:00:37 am
Gracias!!
Título: Re:Rugrats - Pelicula [02/03] - Rugrats En Paris [DVDFull+DVDRip 5.1][REPARADO]
Publicado por: jaker1000 en 02 de junio de 2017, 01:17:12 pm
exelente...
Título: Re:Rugrats - Pelicula [02/03] - Rugrats En Paris [DVDFull+DVDRip 5.1][REPARADO]
Publicado por: Shaoran31 en 25 de junio de 2017, 10:36:36 pm
Muchas gracias por esta gran pelicula, la habia estado buscando
Título: Re:Rugrats - Pelicula [02/03] - Rugrats En Paris [DVDFull+DVDRip 5.1][REPARADO]
Publicado por: bubersito en 11 de julio de 2017, 11:32:22 pm
Gracias por el aporte
Título: Re:Rugrats - Pelicula [02/03] - Rugrats En Paris [DVDFull+DVDRip 5.1][REPARADO]
Publicado por: Jhosue en 12 de julio de 2017, 08:58:41 pm
Gracias por la pelicula
Título: Re:Rugrats - Pelicula [02/03] - Rugrats En Paris [DVDFull+DVDRip 5.1][REPARADO]
Publicado por: Pandiaos en 16 de julio de 2017, 06:23:10 pm
Genial
Título: Re:Rugrats - Pelicula [02/03] - Rugrats En Paris [DVDFull+DVDRip 5.1][REPARADO]
Publicado por: Pandiaos en 16 de julio de 2017, 06:23:54 pm
Gran Aporte, gracias xD
Título: Re:Rugrats - Pelicula [02/03] - Rugrats En Paris [DVDFull+DVDRip 5.1][REPARADO]
Publicado por: francor1895 en 18 de julio de 2017, 12:52:19 am
Gracias por el aporte, la pelicula la estaba buscando desde hace tiempo C:
Título: Re:Rugrats - Pelicula [02/03] - Rugrats En Paris [DVDFull+DVDRip 5.1][REPARADO]
Publicado por: Bloo78 en 28 de julio de 2017, 05:16:01 pm
Genial
Título: Re:Rugrats - Pelicula [02/03] - Rugrats En Paris [DVDFull+DVDRip 5.1][REPARADO]
Publicado por: pinkslip222 en 08 de agosto de 2017, 12:55:40 am
ESTO ESTA GENIAL!!!
Título: Re:Rugrats - Peliculas - 02/03 - Rugrats En Paris - [DVDFull+DVDRip 5.1][MEGA]
Publicado por: l_anta en 25 de septiembre de 2017, 11:56:20 pm
genial
Por fin la encontré después de mucho tiempo
GRACIAS!!!!!!
Título: Re:Rugrats - Pelicula [02/03] - Rugrats En Paris [DVDFull+DVDRip 5.1][REPARADO]
Publicado por: frankensteinsaglez en 05 de octubre de 2017, 03:09:47 pm
muy buena pelicula
Título: Re:Rugrats - Pelicula [02/03] - Rugrats En Paris [DVDFull+DVDRip 5.1][REPARADO]
Publicado por: fumi en 23 de enero de 2018, 08:24:32 pm
 :) ;D :azn: :azn: :azn:
Título: Re:Rugrats - Pelicula [02/03] - Rugrats En Paris [DVDFull+DVDRip 5.1][REPARADO]
Publicado por: marisan en 08 de junio de 2018, 06:10:19 pm
gracias por el aporte,  :)
Título: Re:Rugrats - Pelicula [02/03] - Rugrats En Paris [DVDFull+DVDRip 5.1][REPARADO]
Publicado por: GoboFraggle1983 en 01 de agosto de 2018, 12:10:16 pm
Gracias :)
Título: Re:Rugrats - Pelicula [02/03] - Rugrats En Paris [DVDFull+DVDRip 5.1][2018-FIXED]
Publicado por: marisan en 07 de octubre de 2018, 08:50:30 pm
Increible aporte!!!
Título: Re:Rugrats - Pelicula [02/03] - Rugrats En Paris [DVDFull+DVDRip 5.1][2018-FIXED]
Publicado por: JoseLuiz en 28 de febrero de 2019, 08:26:54 am
 :) Gracias  ;D
Título: Re:Rugrats - Pelicula [02/03] - Rugrats En Paris [DVDFull+DVDRip 5.1][2018-FIXED]
Publicado por: mfam1974 en 28 de marzo de 2019, 06:47:45 pm
gracias con esta completo todas las peliculas
Título: Re:Rugrats - Pelicula [02/03] - Rugrats En Paris [DVDFull+DVDRip 5.1][2018-FIXED]
Publicado por: serxi en 14 de abril de 2019, 06:42:22 am
gracias
Título: Re:Rugrats - Pelicula [02/03] - Rugrats En Paris [DVDFull+DVDRip 5.1][2018-FIXED]
Publicado por: cesarlp en 07 de mayo de 2019, 10:51:53 pm
gracias por esta gran pelicula